* Dettagli Torrent   globale  | Commenti (0) 


- Peng e i due anatroccoli (2018).720p.H264.italian.english.Ac3-5.1-MIRCrew -


Download via torrent:
Categoria bittorrent BDRip
Descrizione
Visitate mircrew-releases

Duck Duck Goose  - Peng e i due anatroccoli 2018.720p.H264.italian.english.Ac3-5.1-MIRCrew


NO FOUND ONLY ORIGINAL RELEASE



My release is always in double track audio italian and Original audio
for select it use VLC or dvd player home
not use wmp

Peng e i due anatroccoli - Duck Duck Goose

2018

Quality MIRCrew on HD 720p da  1,6 gb








Titolo originale Duck Duck Goose
Paese di produzione Cina, Stati Uniti d'America
Anno 2018
Durata 89 min
Genere animazione, avventura, commedia
Regia Chris Jenkins



Doppiatori originali

   Jim Gaffigan: Peng
   Zendaya: Chi
   Lance Lim: Chao
   Greg Proops: Banzou

Doppiatori italiani

   Francesco Pezzulli: Peng
   Veronica Puccio: Chi
   Tatiana Dessi: Chao
   Luigi Ferraro: Gru
   Mino Caprio: Gru coronata




Peng è un'oca impertinente e burlona. A forza di acrobazie per impressionare le oche graziose, si infortuna e deve rinunciare a partire con le oche per la loro grande migrazione annuale. Quindi incontra Chao e Chi, due piccoli anatroccoli, anch'essi separati dal loro gruppo. Nessuno può volare? Non importa, decidono di attraversare tutti e tre la Cina



A bachelor goose must form a bond with two lost ducklings as they journey south..  








General
Unique ID                                : 185706258662340368906287210040964910477 (0x8BB5B975046DB548BFBB5793658B8D8D)
Complete name                            : Peng e i due anatroccoli - Duck Duck Goose (201.720.h264.ita.eng-MIRCrewPeng e i due anatroccoli - Duck Duck Goose (201.720.h264.ita.eng-MIRCrew.mkv
Format                                   : Matroska
Format version                           : Version 2
File size                                : 1.62 GiB
Duration                                 : 1h 31mn
Overall bit rate                         : 2 540 Kbps
Movie name                               : MIRCrew
Encoded date                             : UTC 2018-10-27 14:24:14
Writing application                      : mkvmerge v5.4.0 ('Piper&#39 built on Mar 10 2012 13:34:39
Writing library                          : Lavf54.63.100
COPYRIGHT                                : mircrew-releases

Video
ID                                       : 1
Format                                   : AVC
Format/Info                              : Advanced Video Codec
Format profile                           : Main@L4.1
Format settings, CABAC                   : Yes
Format settings, ReFrames                : 2 frames
Codec ID                                 : V_MPEG4/ISO/AVC
Duration                                 : 1h 31mn
Bit rate                                 : 1 900 Kbps
Width                                    : 1 280 pixels
Height                                   : 528 pixels
Display aspect ratio                     : 2.40:1
Frame rate mode                          : Variable
Frame rate                               : 23.976 fps
Color space                              : YUV
Chroma subsampling                       : 4:2:0
Bit depth                                : 8 bits
Scan type                                : Progressive
Bits/(Pixel*Frame)                       : 0.117
Stream size                              : 1.18 GiB (73%)
Writing library                          : x264 core 130 r2273
Encoding settings                        : cabac=1 / ref=2 / deblock=1:0:0 / analyse=0x1:0x131 / me=hex / subme=7 / psy=1 / psy_rd=1.00:0.00 / mixed_ref=0 / me_range=16 / chroma_me=1 / trellis=1 / 8x8dct=0 / cqm=0 / deadzone=21,11 / fast_pskip=1 / chroma_qp_offset=-2 / threads=6 / lookahead_threads=1 / sliced_threads=0 / nr=0 / decimate=1 / interlaced=0 / bluray_compat=0 / constrained_intra=0 / bframes=3 / b_pyramid=0 / b_adapt=1 / b_bias=0 / direct=3 / weightb=1 / open_gop=0 / weightp=2 / keyint=230 / keyint_min=23 / scenecut=40 / intra_refresh=0 / rc_lookahead=40 / rc=abr / mbtree=1 / bitrate=1900 / ratetol=1.0 / qcomp=0.60 / qpmin=10 / qpmax=69 / qpstep=4 / vbv_maxrate=24000 / vbv_bufsize=24000 / nal_hrd=none / ip_ratio=1.40 / aq=1:1.00
Default                                  : Yes
Forced                                   : No
DURATION                                 : 01:31:22.477000000
NUMBER_OF_FRAMES                         : 131448
NUMBER_OF_BYTES                          : 1473450357
_STATISTICS_WRITING_APP                  : mkvmerge v9.8.0 ('Kuglblids&#39 32bit
_STATISTICS_WRITING_DATE_UTC             : 2018-10-27 14:24:14
_STATISTICS_TAGS                         : BPS DURATION NUMBER_OF_FRAMES NUMBER_OF_BYTES

Audio #1
ID                                       : 2
Format                                   : AC-3
Format/Info                              : Audio Coding 3
Mode extension                           : CM (complete main)
Codec ID                                 : A_AC3
Duration                                 : 1h 31mn
Bit rate mode                            : Constant
Bit rate                                 : 384 Kbps
Channel(s)                               : 6 channels
Channel positions                        : Front: L C R, Side: L R, LFE
Sampling rate                            : 48.0 KHz
Bit depth                                : 16 bits
Compression mode                         : Lossy
Delay relative to video                  : -42ms
Stream size                              : 251 MiB (15%)
Language                                 : Italian
Default                                  : Yes
Forced                                   : No

Audio #2
ID                                       : 3
Format                                   : AC-3
Format/Info                              : Audio Coding 3
Mode extension                           : CM (complete main)
Codec ID                                 : A_AC3
Duration                                 : 1h 31mn
Bit rate mode                            : Constant
Bit rate                                 : 256 Kbps
Channel(s)                               : 2 channels
Channel positions                        : Front: L R
Sampling rate                            : 48.0 KHz
Bit depth                                : 16 bits
Compression mode                         : Lossy
Delay relative to video                  : -42ms
Stream size                              : 167 MiB (10%)
Language                                 : English
Default                                  : No
Forced                                   : No

Info: Per scaricare devi usare un client come uTorrent o Transmission
AnnounceURL
udp://tracker.coppersurfer.tk:6969/announce
Hash b34b5be6c257fb2507e8c76cb2ffdf2b754e19f1
Peers seeds: 124 , leech: 32
Size 1.62 GB
Completato 1599x
Aggiunto 09.11.18 - 13:11:37
Uploader   robbyrs
Votazione (Voti: 0)


Condividi questo bittorrent:


html/blog:


bbcode/forum:




Aggiungi Commento