* Dettagli Torrent   globale  | Commenti (0) 


- Alice nel paese delle meraviglie (1951).720p.H264.italian.english.Ac3-5.1.multisub-MIRCrew -


Download via torrent:
Categoria bittorrent BDRip
Descrizione
Alice In Wonderland - Alice nel paese delle meraviglie (1951).720p.H264.italian.english.Ac3-5.1.multisub-MIRCrew


visitate mircrew-release


NO FOUND ONLY ORIGINAL RELEASE



My release is always in double track audio italian and Original audio
for select it use VLC or dvd player home
not use wmp

Alice nel paese delle meraviglie - Alice In Wonderland (1951)

Quality MIRCrew on HD 720p da  1,1 gb








Titolo originale Alice in Wonderland
Lingua originale inglese
Paese di produzione USA
Anno 1951
Durata 75 min
Rapporto 1.37:1
Genere animazione, avventura, commedia, musicale, fantastico
Regia Clyde Geronimi, Hamilton Luske, Wilfred Jackson
Soggetto Lewis Carroll
Sceneggiatura Winston Hibler,



Kathryn Beaumont: Alice
Ed Wynn: Cappellaio Matto
Richard Haydn: Brucaliffo
Sterling Holloway: Stregatto
Jerry Colonna: Leprotto Bisestile
Verna Felton: Regina di Cuori
J. Pat O'Malley: Tricheco, Carpentiere, Pinco Panco, Panco Pinco
Bill Thompson: Bianconiglio, Capitan Libeccio
Heather Angel: Sorella di Alice
Joseph Kearns: Serratura
Larry Grey: Biagio Lucertola
Queenie Leonard: Margherita
Dink Trout: Re di Cuori
ecc............



Sulla riva di un fiume tranquillo, una ragazzina di nome Alice si annoia ascoltando la sua sorella maggiore che legge ad alta voce da un libro di storia su Guglielmo I d'Inghilterra. Quando sua sorella rimprovera i sogni ad occhi aperti di Alice, la ragazzina racconta al suo gattino Oreste che lei preferirebbe vivere in un mondo dei sogni privo di senso chiamato Paese delle Meraviglie.....................



Alice is a daydreaming young girl. She finds learning poems and listening to literature boring. She prefers stories with pictures and to live inside her imagination. One day, while enduring just such a poetry reading, she spots a large white rabbit...dressed in a jacket and carrying a large watch. He scurries off, saying he's late, for a very important date. She follows him through the forest. He then disappears down a rabbit hole. Alice follows, leading her to all manner of discoveries, characters and adventures.











General
Unique ID                                : 158561936350268079331501181754847808055 (0x7749EB0A4930EF69D135D1CD6F484A37)
Complete name                            : Alice nel paese delle meraviglie - Alice In Wonderland (1951).720p.ita.eng.multisub-MIRCrew\Alice nel paese delle meraviglie - Alice In Wonderland (1951).mkv
Format                                   : Matroska
Format version                           : Version 2
File size                                : 1.10 GiB
Duration                                 : 1h 15mn
Overall bit rate                         : 2 083 Kbps
Encoded date                             : UTC 2018-09-22T15:45:58Z
Writing application                      : HandBrake 0.10.5 2016021100
Writing library                          : Lavf55.12.0

Video
ID                                       : 1
Format                                   : AVC
Format/Info                              : Advanced Video Codec
Format profile                           : High@L4.1
Format settings, CABAC                   : Yes
Format settings, ReFrames                : 4 frames
Codec ID                                 : V_MPEG4/ISO/AVC
Duration                                 : 1h 15mn
Bit rate                                 : 1 300 Kbps
Width                                    : 944 pixels
Height                                   : 720 pixels
Display aspect ratio                     : 4:3
Frame rate mode                          : Variable
Frame rate                               : 23.976 fps
Color space                              : YUV
Chroma subsampling                       : 4:2:0
Bit depth                                : 8 bits
Scan type                                : Progressive
Bits/(Pixel*Frame)                       : 0.080
Stream size                              : 686 MiB (61%)
Writing library                          : x264 core 142 r2479 dd79a61
Encoding settings                        : cabac=1 / ref=1 / deblock=1:0:0 / analyse=0x3:0x113 / me=hex / subme=2 / psy=1 / psy_rd=1.00:0.00 / mixed_ref=0 / me_range=16 / chroma_me=1 / trellis=0 / 8x8dct=1 / cqm=0 / deadzone=21,11 / fast_pskip=1 / chroma_qp_offset=0 / threads=6 / lookahead_threads=2 / sliced_threads=0 / nr=0 / decimate=1 / interlaced=0 / bluray_compat=0 / constrained_intra=0 / bframes=3 / b_pyramid=2 / b_adapt=1 / b_bias=0 / direct=1 / weightb=1 / open_gop=0 / weightp=1 / keyint=240 / keyint_min=24 / scenecut=40 / intra_refresh=0 / rc_lookahead=10 / rc=abr / mbtree=1 / bitrate=1300 / ratetol=1.0 / qcomp=0.60 / qpmin=0 / qpmax=69 / qpstep=4 / vbv_maxrate=62500 / vbv_bufsize=78125 / nal_hrd=none / filler=0 / ip_ratio=1.40 / aq=1:1.00
Default                                  : Yes
Forced                                   : No
Color primaries                          : BT.709-5, BT.1361, IEC 61966-2-4, SMPTE RP177
Transfer characteristics                 : BT.709-5, BT.1361
Matrix coefficients                      : BT.709-5, BT.1361, IEC 61966-2-4 709, SMPTE RP177

Audio #1
ID                                       : 2
Format                                   : AC-3
Format/Info                              : Audio Coding 3
Mode extension                           : CM (complete main)
Codec ID                                 : A_AC3
Duration                                 : 1h 15mn
Bit rate mode                            : Constant
Bit rate                                 : 384 Kbps
Channel(s)                               : 6 channels
Channel positions                        : Front: L C R, Side: L R, LFE
Sampling rate                            : 48.0 KHz
Bit depth                                : 16 bits
Compression mode                         : Lossy
Delay relative to video                  : 1mn 5s
Stream size                              : 207 MiB (18%)
Title                                    : Ita Ac3 5.1
Language                                 : Italian
Default                                  : Yes
Forced                                   : No

Audio #2
ID                                       : 3
Format                                   : AC-3
Format/Info                              : Audio Coding 3
Mode extension                           : CM (complete main)
Codec ID                                 : A_AC3
Duration                                 : 1h 15mn
Bit rate mode                            : Constant
Bit rate                                 : 384 Kbps
Channel(s)                               : 6 channels
Channel positions                        : Front: L C R, Side: L R, LFE
Sampling rate                            : 48.0 KHz
Bit depth                                : 16 bits
Compression mode                         : Lossy
Delay relative to video                  : 1mn 5s
Stream size                              : 207 MiB (18%)
Title                                    : Eng Ac3 5.1
Language                                 : English
Default                                  : No
Forced                                   : No

Menu
00:00:00.000                             : :1. Opening Credits
00:01:42.227                             : :2. Alice's History Lesson
00:02:58.178                             : :3. In a World of My Own
00:04:48.705                             : :4. The White Rabbit
00:07:28.948                             : :5. Curiouser and Curiouser
00:08:11.824                             : :6. The Bottle on the Table
00:10:33.174                             : :7. Through the Keyhole in a Bottle
00:13:14.794                             : :8. Alice Meets Twiddledee and Twidledum
00:15:03.611                             : :9. The Walrus and the Carpenter
00:20:53.502                             : :10. The White Rabbit's House
00:22:47.240                             : :11. A Lizard with a Ladder
00:26:21.580                             : :12. A Garden of Talking Flowers
00:27:16.760                             : :13. All in the Golden Afternoon
00:31:50.325                             : :14. Advice From a Caterpillar
00:36:34.317                             : :15. More Ups and Downs for Alice
00:38:30.308                             : :16. The Cheshire Cat
00:41:36.869                             : :17. A Mad Tea Party
00:47:45.571                             : :18. Who's Got Time?
00:50:00.706                             : :19. The Tugley Wood
00:53:58.735                             : :20. Very Good Advice
00:56:08.948                             : :21. The Cheshire Cat Again
00:57:18.560                             : :22. Painting the Roses Red
00:58:58.993                             : :23. The March of the Cards
01:00:10.064                             : :24. The Queen of Hearts
01:02:35.793                             : :24. A Game of Croquet
01:06:52.133                             : :25. Alice's Trial
01:11:29.993                             : :26. The Chase






Info: Per scaricare devi usare un client come uTorrent o Transmission
AnnounceURL
udp://tracker.coppersurfer.tk:6969/announce
Hash dc61650095da1d430f6829cda08de5d7ea7b6661
Peers seeds: 42 , leech: 8
Size 1.10 GB
Completato 651x
Aggiunto 18.10.18 - 17:10:00
Uploader   robbyrs
Votazione (Voti: 0)


Condividi questo bittorrent:


html/blog:


bbcode/forum:




Aggiungi Commento