* Dettagli Torrent   globale  | Commenti (0) 


- Sesso in testa - Italian sex (1974).H264.italian.Ac3-MIRCrew -


Download via torrent:
Categoria bittorrent BDRip
Descrizione
Sesso in testa - Italian sex (1974).H264.italian.Ac3-MIRCrew

visitate mircrew-releases


NO FOUND ONLY ORIGINAL RELEASE

Sesso In Testa - Italian sex (1974)







Anno: 1974
Durata:  90 min.
Paese:  Italia
Regia: Sergio Ammirata



Pilar Velázquez, Didi Perego, Mario Carotenuto, Toni Ucci, Ugo Fangareggi, Oreste Lionello, Gigi Ballista, Tino Scotti, Gastone Pescucci, Lino Banfi, Aldo Giuffrè, Sergio Ammirata, Gino Santercole, Fernando Di Leo



Una studente di sociologia presenta la sua tesi di come gli uomini italiani si riferiscono alle prostitute. Il problema è che ha studiato il soggetto di prima mano, lavorando come prostituta



A sociology student defends her thesis: how Italian men relate to prostitutes. The catch is, she studied the subject first hand, working as a prostitute. Her case studies are presented in several colorful vignettes.  









General
Unique ID                                : 178976767937436915112322255065261134545 (0x86A5ABF2B2D226A6C90FCDD35195D2D1)
Complete name                            : Sesso In Testa - Italian sex (1974).h264.ita.sub.eng-MIRCrew\Italian Sex\Sesso In Testa - Italian sex (1974).h264.ita.sub.eng-MIRCrew.mkv
Format                                   : Matroska
Format version                           : Version 2
File size                                : 795 MiB
Duration                                 : 1h 26mn
Overall bit rate                         : 1 293 Kbps
Encoded date                             : UTC 2018-09-05T09:00:44Z
Writing application                      : HandBrake 0.10.5 2016021100
Writing library                          : Lavf55.12.0

Video
ID                                       : 1
Format                                   : AVC
Format/Info                              : Advanced Video Codec
Format profile                           : High@L4.1
Format settings, CABAC                   : Yes
Format settings, ReFrames                : 4 frames
Codec ID                                 : V_MPEG4/ISO/AVC
Duration                                 : 1h 26mn
Bit rate                                 : 1 100 Kbps
Width                                    : 704 pixels
Height                                   : 368 pixels
Display aspect ratio                     : 1.913
Frame rate mode                          : Variable
Frame rate                               : 25.000 fps
Color space                              : YUV
Chroma subsampling                       : 4:2:0
Bit depth                                : 8 bits
Scan type                                : Progressive
Bits/(Pixel*Frame)                       : 0.170
Stream size                              : 661 MiB (83%)
Writing library                          : x264 core 142 r2479 dd79a61
Encoding settings                        : cabac=1 / ref=3 / deblock=1:0:0 / analyse=0x3:0x113 / me=hex / subme=7 / psy=1 / psy_rd=1.00:0.00 / mixed_ref=1 / me_range=16 / chroma_me=1 / trellis=1 / 8x8dct=1 / cqm=0 / deadzone=21,11 / fast_pskip=1 / chroma_qp_offset=-2 / threads=3 / lookahead_threads=1 / sliced_threads=0 / nr=0 / decimate=1 / interlaced=0 / bluray_compat=0 / constrained_intra=0 / bframes=3 / b_pyramid=2 / b_adapt=1 / b_bias=0 / direct=1 / weightb=1 / open_gop=0 / weightp=2 / keyint=250 / keyint_min=25 / scenecut=40 / intra_refresh=0 / rc_lookahead=40 / rc=abr / mbtree=1 / bitrate=1100 / ratetol=1.0 / qcomp=0.60 / qpmin=0 / qpmax=69 / qpstep=4 / vbv_maxrate=62500 / vbv_bufsize=78125 / nal_hrd=none / filler=0 / ip_ratio=1.40 / aq=1:1.00
Default                                  : Yes
Forced                                   : No
Color primaries                          : BT.470-6 System B, BT.470-6 System G, BT.601-6 625, BT.1358 625, BT.1700 625 PAL, BT.1700 625 SECAM
Transfer characteristics                 : BT.709-5, BT.1361
Matrix coefficients                      : BT.601-6 525, BT.1358 525, BT.1700 NTSC, SMPTE 170M

Audio
ID                                       : 2
Format                                   : AC-3
Format/Info                              : Audio Coding 3
Mode extension                           : CM (complete main)
Codec ID                                 : A_AC3
Duration                                 : 1h 26mn
Bit rate mode                            : Constant
Bit rate                                 : 192 Kbps
Channel(s)                               : 2 channels
Channel positions                        : Front: L R
Sampling rate                            : 48.0 KHz
Bit depth                                : 16 bits
Compression mode                         : Lossy
Delay relative to video                  : 1mn 5s
Stream size                              : 118 MiB (15%)
Title                                    : Stereo
Default                                  : Yes
Forced                                   : No




Info: Per scaricare devi usare un client come uTorrent o Transmission
AnnounceURL
udp://tracker.coppersurfer.tk:6969/announce
Hash 7d728e9d38369ac4709ec662bdc561c8a1b615d4
Peers seeds: 25 , leech: 5
Size 795.46 MB
Completato 545x
Aggiunto 17.10.18 - 15:10:06
Uploader   robbyrs
Votazione (Voti: 0)


Condividi questo bittorrent:


html/blog:


bbcode/forum:




Aggiungi Commento