* Dettagli Torrent   globale  | Commenti (0) 


- La Bottega che vendeva la morte (1973).H264.italian.Mp3-MIRCrew -


Download via torrent:
Categoria bittorrent BDRip
Descrizione
La Bottega che vendeva la morte (1973).H264.italian.Mp3-MIRCrew


visitate mircrew-releases


NO FOUND ONLY ORIGINAL RELEASE


La Bottega che vendeva la morte (1973)







Titolo originale From Beyond the Grave
Paese di produzione Gran Bretagna
Anno 1973
Durata 97 min
Genere orrore
Regia Kevin Connor
Soggetto R. Chetwynd-Hayes
Sceneggiatura Raymond Christodoulou, Robin Clarke



   Peter Cushing: il bottegaio

Episodio 1 "The Gate Crasher"

   David Warner: Edward Charlton
   Wendy Allnutt: Pamela
   Marcel Steiner: il volto
   Rosalind Ayres: prostituta
   Tommy Godfrey: Jeffries

Episodio 2 "An Act of Kindness"

   Ian Bannen: Christopher Lowe
   Diana Dors: Mabel
   Donald Pleasence: Jim Underwood
   Angela Pleasence: Emily Underwood
   John O'Farrell: figlio di Christopher

Episodio 3 "The Elemental"

   Ian Carmichael: Reginald Warren
   Nyree Dawn Porter: Susan Warren
   Margaret Leighton: Madame Orloff

Episodio 4 "The Door"

   Ian Ogilvy: William Seaton
   Lesley-Anne Down: Rosemary Seaton
   Jack Watson: sir Michael Sinclair



Un bottegaio è alle prese con alcuni clienti disonesti, i quali, dopo aver comprato o rubato qualcosa nella bottega, faranno quasi tutti una brutta fine.



An anthology of four short horror stories revolving around a British antique shop and its mysterious owner.









General
Unique ID                                : 90176006761548999693719096333911241937 (0x43D744652B8C1125CF0C6981F624B4D1)
Complete name                            : La Bottega che vendeva la morte (1973).H264.ita-MIRCrew\La Bottega che vendeva la morte (1973).H264.ita-MIRCrew.mkv
Format                                   : Matroska
Format version                           : Version 2
File size                                : 692 MiB
Duration                                 : 1h 33mn
Overall bit rate                         : 1 029 Kbps
Encoded date                             : UTC 2018-06-21T11:36:36Z
Writing application                      : HandBrake 0.10.5 2016021100
Writing library                          : Lavf55.12.0

Video
ID                                       : 1
Format                                   : AVC
Format/Info                              : Advanced Video Codec
Format profile                           : High@L4.1
Format settings, CABAC                   : Yes
Format settings, ReFrames                : 4 frames
Codec ID                                 : V_MPEG4/ISO/AVC
Duration                                 : 1h 33mn
Bit rate                                 : 900 Kbps
Width                                    : 512 pixels
Height                                   : 272 pixels
Display aspect ratio                     : 1.882
Frame rate mode                          : Variable
Frame rate                               : 31.262 fps
Color space                              : YUV
Chroma subsampling                       : 4:2:0
Bit depth                                : 8 bits
Scan type                                : Progressive
Bits/(Pixel*Frame)                       : 0.207
Stream size                              : 592 MiB (86%)
Writing library                          : x264 core 142 r2479 dd79a61
Encoding settings                        : cabac=1 / ref=3 / deblock=1:0:0 / analyse=0x3:0x113 / me=hex / subme=7 / psy=1 / psy_rd=1.00:0.00 / mixed_ref=1 / me_range=16 / chroma_me=1 / trellis=1 / 8x8dct=1 / cqm=0 / deadzone=21,11 / fast_pskip=1 / chroma_qp_offset=-2 / threads=3 / lookahead_threads=1 / sliced_threads=0 / nr=0 / decimate=1 / interlaced=0 / bluray_compat=0 / constrained_intra=0 / bframes=3 / b_pyramid=2 / b_adapt=1 / b_bias=0 / direct=1 / weightb=1 / open_gop=0 / weightp=2 / keyint=310 / keyint_min=31 / scenecut=40 / intra_refresh=0 / rc_lookahead=40 / rc=abr / mbtree=1 / bitrate=900 / ratetol=1.0 / qcomp=0.60 / qpmin=0 / qpmax=69 / qpstep=4 / vbv_maxrate=62500 / vbv_bufsize=78125 / nal_hrd=none / filler=0 / ip_ratio=1.40 / aq=1:1.00
Default                                  : Yes
Forced                                   : No
Color primaries                          : BT.601-6 525, BT.1358 525, BT.1700 NTSC, SMPTE 170M
Transfer characteristics                 : BT.709-5, BT.1361
Matrix coefficients                      : BT.601-6 525, BT.1358 525, BT.1700 NTSC, SMPTE 170M

Audio
ID                                       : 2
Format                                   : MPEG Audio
Format version                           : Version 1
Format profile                           : Layer 3
Mode                                     : Joint stereo
Mode extension                           : MS Stereo
Codec ID                                 : A_MPEG/L3
Codec ID/Hint                            : MP3
Duration                                 : 1h 33mn
Bit rate mode                            : Constant
Bit rate                                 : 128 Kbps
Channel(s)                               : 2 channels
Sampling rate                            : 48.0 KHz
Compression mode                         : Lossy
Delay relative to video                  : 1mn 5s
Stream size                              : 86.0 MiB (12%)
Title                                    : Stereo
Writing library                          : LAME3.98
Default                                  : Yes
Forced                                   : No





Info: Per scaricare devi usare un client come uTorrent o Transmission
AnnounceURL
udp://tracker.coppersurfer.tk:6969/announce
Hash 0de4f4302ab219efb1edfdc58e23a8527f6539ad
Peers seeds: 27 , leech: 4
Size 691.74 MB
Completato 514x
Aggiunto 17.10.18 - 13:10:45
Uploader   robbyrs
Votazione (Voti: 1)


Condividi questo bittorrent:


html/blog:


bbcode/forum:




Aggiungi Commento