* Dettagli Torrent   globale  | Commenti (0) 


- Youtopia (2018).720p.H264.italian.Ac3-5.1-MIRCrew -


Download via torrent:
Categoria bittorrent BDRip
Descrizione
Youtopia 2018.720p.H264.italian.Ac3-5.1-MIRCrew


Visitate mircrew-releases


NO FOUND ONLY ORIGINAL RELEASE



My release is always in double track audio italian and Original audio
for select it use VLC or dvd player home
not use wmp

Youtopia 2018

Quality MIRCrew on HD 720p da  1,4 gb









GENERE: Drammatico
ANNO: 2018
REGIA: Berardo Carboni

PAESE: Italia
DURATA: 92 Min



Matilda De Angelis, Alessandro Haber, Donatella Finocchiaro, Luca Lionello, Pamela Villoresi, Paolo Sassanelli, Lina Bernardi, Claudio Botosso, Federico Rosati, Silvia Francese, Laura Pizzirani, Giulia Anchisi



Cosa succede quando una giovane ragazza mette all'asta sul web la propria verginità per saldare i debiti della madre?



Youtopia is the story of a young woman who decides to sell her virginity to pay debts of her mother and of the man who decides to buy it . It's a Bildungsroman in which the protagonist discovers new worlds and new feelings.









General
Unique ID                                : 4127361211498084904165916379723978177 (0x31AE69E6C72979FCB2221664B7DD5C1)
Complete name                            : Youtopia 2018.720p.h264.ita-MIRCrew\Youtopia 2018.720p.h264.ita-MIRCrew.mkv
Format                                   : Matroska
Format version                           : Version 2
File size                                : 1.40 GiB
Duration                                 : 1h 31mn
Overall bit rate                         : 2 184 Kbps
Encoded date                             : UTC 2018-09-26T11:32:24Z
Writing application                      : HandBrake 0.10.5 2016021100
Writing library                          : Lavf55.12.0

Video
ID                                       : 1
Format                                   : AVC
Format/Info                              : Advanced Video Codec
Format profile                           : High@L4.1
Format settings, CABAC                   : Yes
Format settings, ReFrames                : 4 frames
Codec ID                                 : V_MPEG4/ISO/AVC
Duration                                 : 1h 31mn
Bit rate                                 : 1 800 Kbps
Width                                    : 1 280 pixels
Height                                   : 544 pixels
Display aspect ratio                     : 2.35:1
Frame rate mode                          : Variable
Frame rate                               : 25.000 fps
Color space                              : YUV
Chroma subsampling                       : 4:2:0
Bit depth                                : 8 bits
Scan type                                : Progressive
Bits/(Pixel*Frame)                       : 0.103
Stream size                              : 1.13 GiB (80%)
Writing library                          : x264 core 142 r2479 dd79a61
Encoding settings                        : cabac=1 / ref=3 / deblock=1:0:0 / analyse=0x3:0x113 / me=hex / subme=7 / psy=1 / psy_rd=1.00:0.00 / mixed_ref=1 / me_range=16 / chroma_me=1 / trellis=1 / 8x8dct=1 / cqm=0 / deadzone=21,11 / fast_pskip=1 / chroma_qp_offset=-2 / threads=6 / lookahead_threads=1 / sliced_threads=0 / nr=0 / decimate=1 / interlaced=0 / bluray_compat=0 / constrained_intra=0 / bframes=3 / b_pyramid=2 / b_adapt=1 / b_bias=0 / direct=1 / weightb=1 / open_gop=0 / weightp=2 / keyint=250 / keyint_min=25 / scenecut=40 / intra_refresh=0 / rc_lookahead=40 / rc=abr / mbtree=1 / bitrate=1800 / ratetol=1.0 / qcomp=0.60 / qpmin=0 / qpmax=69 / qpstep=4 / vbv_maxrate=62500 / vbv_bufsize=78125 / nal_hrd=none / filler=0 / ip_ratio=1.40 / aq=1:1.00
Default                                  : Yes
Forced                                   : No
Color primaries                          : BT.709-5, BT.1361, IEC 61966-2-4, SMPTE RP177
Transfer characteristics                 : BT.709-5, BT.1361
Matrix coefficients                      : BT.709-5, BT.1361, IEC 61966-2-4 709, SMPTE RP177

Audio
ID                                       : 2
Format                                   : AC-3
Format/Info                              : Audio Coding 3
Mode extension                           : CM (complete main)
Codec ID                                 : A_AC3
Duration                                 : 1h 31mn
Bit rate mode                            : Constant
Bit rate                                 : 384 Kbps
Channel(s)                               : 6 channels
Channel positions                        : Front: L C R, Side: L R, LFE
Sampling rate                            : 48.0 KHz
Bit depth                                : 16 bits
Compression mode                         : Lossy
Delay relative to video                  : 1mn 5s
Stream size                              : 252 MiB (18%)
Language                                 : Italian
Default                                  : Yes
Forced                                   : No

Menu
00:00:00.000                             : 01)00:00:00:000
00:13:10.120                             : 02)00:13:10:040
00:28:23.640                             : 03)00:28:23:560
00:41:24.640                             : 04)00:41:24:560
00:51:16.760                             : 05)00:51:16:680
01:03:29.200                             : 06)01:03:29:120
01:15:44.320                             : 07)01:15:44:240
01:28:42.800                             : 001:28:42:720





Info: Per scaricare devi usare un client come uTorrent o Transmission
AnnounceURL
udp://tracker.coppersurfer.tk:6969/announce
Hash 7dce4873924a45168077ee0d292bdb9c2ad20982
Peers seeds: 77 , leech: 17
Size 1.40 GB
Completato 1765x
Aggiunto 16.10.18 - 18:10:37
Uploader   robbyrs
Votazione (Voti: 0)


Condividi questo bittorrent:


html/blog:


bbcode/forum:




Aggiungi Commento