* Dettagli Torrent   globale  | Commenti (0) 


- Blindspot.3x14.Eterno.ITA.ENG.1080p.AMZN.WEB-DLMux.H.264-Morpheus.mkv -


Download via torrent:
Categoria bittorrent SerieTv
Descrizione
[center]

GIUSEPPEiCV & LITTLELINX
HANNO IL PIACERE DI PRESENTARE


[STAGIONE 3
WEB-DLMUX 1080p
ITA - ENG AC3
SUB ITA - ENG




.: Dati Serie :.


Nazione: Stati Uniti d'America
Anno: 2017
Genere: azione, poliziesco, drammatico, thriller
Stagioni 3
Episodi: 22?
Durata: 45 min circa
Lingua: ITA - ENG
Cast:
• Sullivan Stapleton: Kurt Weller
• Jaimie Alexander: Alice "Remi" Kruger aka Jane Doe
• Rob Brown: Edgar Reade
• Audrey Esparza: Tasha Zapata
• Ashley Johnson: Patterson
• Ukweli Roach: Dr. Robert Borden/Nigel Thornton
• Marianne Jean-Baptiste: Bethany Mayfair
• Archie Panjabi: Nas Kamal
• Luke Mitchell: Ian "Roman" Kruger
• Michelle Hurd: Ellen "Shepherd" Briggs

Jane Doe is found in Times Square with no memory and mysterious tattoos on her body.

Un borsone viene lasciato incustodito a Times Square. D'un tratto qualcosa, o meglio, qualcuno, all'interno della sacca si muove! La cerniera si apre. Esce una donna. E' completamente nuda! E tutta tatuata… Non sa chi e', da dove viene e chi sia stato a farle quei misteriosi tatuaggi che ricoprono il suo corpo ma tra questi vi e' il nome dell'agente dell'FBI Kurt Weller. Essendo priva di memoria, la donna ritrovata nel borsone assume il nome di Jane Doe, l'appellativo dato a coloro che perdono coscienza della propria identita'. Weller e la sua squadra iniziano a indagare



.: Screenshot :.



.: Caratteristiche Tecniche :.
[spoiler]
Blindspot.3x01.Di.Nuovo.Al.Lavoro.ITA.ENG.1080p.AMZN.WEB-DLMux.H.264-Morpheus.mkv
Format                                   : Matroska
Format version                           : Version 4 / Version 2
File size                                : 3.68 GiB
Duration                                 : 41mn 20s
Overall bit rate mode                    : Variable
Overall bit rate                         : 12.8 Mbps
Encoded date                             : UTC 2018-02-14 18:20:35
Writing application                      : mkvmerge v7.6.0 ('Garden of Dreams') 64bit built on Feb  8 2015 15:12:28
Writing library                          : libebml v1.3.1 + libmatroska v1.4.2
DURATION                                 : 00:41:20.160000000
NUMBER_OF_FRAMES                         : 77505
NUMBER_OF_BYTES                          : 119047680
_STATISTICS_WRITING_APP                  : mkvmerge v7.6.0 ('Garden of Dreams') 64bit built on Feb  8 2015 15:12:28
_STATISTICS_WRITING_DATE_UTC             : 2018-02-14 18:20:35
_STATISTICS_TAGS                         : BPS DURATION NUMBER_OF_FRAMES NUMBER_OF_BYTES

Video
ID                                       : 1
Format                                   : AVC
Format/Info                              : Advanced Video Codec
Format profile                           : High@L4.0
Format settings, CABAC                   : Yes
Format settings, ReFrames                : 4 frames
Codec ID                                 : V_MPEG4/ISO/AVC
Duration                                 : 41mn 20s
Bit rate mode                            : Variable
Bit rate                                 : 11.9 Mbps
Maximum bit rate                         : 15.0 Mbps
Width                                    : 1 920 pixels
Height                                   : 1 080 pixels
Display aspect ratio                     : 16:9
Frame rate                               : 25.000 fps
Original frame rate                      : 23.976 fps
Color space                              : YUV
Chroma subsampling                       : 4:2:0
Bit depth                                : 8 bits
Scan type                                : Progressive
Bits/(Pixel*Frame)                       : 0.230
Stream size                              : 3.44 GiB (93%)
Default                                  : Yes
Forced                                   : No
Color primaries                          : BT.709-5, BT.1361, IEC 61966-2-4, SMPTE RP177
Transfer characteristics                 : BT.709-5, BT.1361
Matrix coefficients                      : BT.709-5, BT.1361, IEC 61966-2-4 709, SMPTE RP177

Audio #1
ID                                       : 2
Format                                   : AC-3
Format/Info                              : Audio Coding 3
Mode extension                           : CM (complete main)
Codec ID                                 : A_AC3
Duration                                 : 41mn 20s
Bit rate mode                            : Constant
Bit rate                                 : 192 Kbps
Channel(s)                               : 2 channels
Channel positions                        : Front: L R
Sampling rate                            : 48.0 KHz
Bit depth                                : 16 bits
Compression mode                         : Lossy
Stream size                              : 56.8 MiB (2%)
Title                                    : ITA
Language                                 : Italian
Default                                  : Yes
Forced                                   : Yes

Audio #2
ID                                       : 3
Format                                   : AC-3
Format/Info                              : Audio Coding 3
Mode extension                           : CM (complete main)
Codec ID                                 : A_AC3
Duration                                 : 41mn 20s
Bit rate mode                            : Constant
Bit rate                                 : 384 Kbps
Channel(s)                               : 6 channels
Channel positions                        : Front: L C R, Side: L R, LFE
Sampling rate                            : 48.0 KHz
Bit depth                                : 16 bits
Compression mode                         : Lossy
Stream size                              : 114 MiB (3%)
Title                                    : ENG
Language                                 : English
Default                                  : No
Forced                                   : No

Text #1
ID                                       : 4
Format                                   : UTF-8
Codec ID                                 : S_TEXT/UTF8
Codec ID/Info                            : UTF-8 Plain Text
Title                                    : ITA - Forced
Language                                 : Italian
Default                                  : Yes
Forced                                   : Yes

Text #2
ID                                       : 5
Format                                   : UTF-8
Codec ID                                 : S_TEXT/UTF8
Codec ID/Info                            : UTF-8 Plain Text
Language                                 : Italian
Default                                  : No
Forced                                   : No

Text #3
ID                                       : 6
Format                                   : UTF-8
Codec ID                                 : S_TEXT/UTF8
Codec ID/Info                            : UTF-8 Plain Text
Language                                 : English
Default                                  : No
Forced                                   : No


[/spoiler]

.: Ringraziamenti :.




RESTATE IN SEED ALTRIMENTI

 

[/center]
Info: Per scaricare devi usare un client come uTorrent o Transmission
AnnounceURL
http://tracker.tntvillage.scambioetico.org:2710/announce
Hash c8777574256b5938ae7d509121563f9d6deb9af4
Peers seeds: 10 , leech: 10
Size 3.59 GB
Completato 988x
Aggiunto 23.08.18 - 19:08:37
Uploader   ppb1
Votazione (Voti: 0)


Condividi questo bittorrent:


html/blog:


bbcode/forum:




Aggiungi Commento