* Dettagli Torrent   globale  | Commenti (3) 


- Guardiani della Galassia Vol. 2 - Guardians of the Galaxy Vol. 2 (2017 Ita/Eng) [MD][CAM][iCV-MIRCre -


Download via torrent:
Categoria bittorrent BDRip
Descrizione
[center]






Guardiani della Galassia Vol. 2 (2017)




Titolo originale: Guardians of the Galaxy Vol. 2
Nazionalità: USA
Anno: 2017
Genere: azione, fantascienza, avventura
Regia: James Gunn
Durata: 136




Chris Pratt: Peter Quill / Star-Lord
Zoe Saldana: Gamora
Dave Bautista: Drax il Distruttore
Michael Rooker: Yondu Udonta
Karen Gillan: Nebula
Pom Klementieff: Mantis
Elizabeth Debicki: Ayesha
Chris Sullivan: Taserface
Sean Gunn: Kraglin
Sylvester Stallone: Stakar Ogord
Kurt Russell: Ego




Guardiani della Galassia 2 è il sequel dell'originale e scanzonato cinecomic diretto da James Gunn. Già dal titolo, che ammicca all'Awesome Mixtape #2, si capisce che è tempo di capovolgere la musicassetta vintage e scoprire il lato nascosto dei protagonisti del film che ha dato inizio al franchise. Il gruppo di eroi atipici e alieni singolari, più che Guardiani della galassia, svogliate sentinelle dello spazio, si tuffa in una nuova avventura per scoprire l'identità del padre di Peter Quill/Star-Lord (Chris Pratt), lo spavaldo ladro spaziale incastrato suo malgrado nel ruolo di leader della sgangherata banda. Al fianco dell'impudente Star-Lord, a ranghi sciolti, tornano la bella e letale Gamora (Zoe Saldana), lo spietato Drax (Dave Bautista), l'irascibile Rocket (voce originale di Bradley Cooper) e ridotto a dimensioni bonsai l'indisciplinato, scattante Baby Groot (con la voce originale di Vin Diesel). La storia segue l'evoluzione individuale di ciascun componente e il faticoso processo di consolidamento come gruppo e nucleo familiare, cui si vanno aggiungendo nuovi personaggi, nemici redenti e parenti scomodi saltati fuori dai più remoti anfratti dell'universo. Tra gli interpreti del film troviamo anche Michael Rooker nel ruolo di Yondu, Karen Gillan in quello di Nebula, mentre Sean Gunn torna a interpretare Kraglin. Il cast include inoltre Pom Klementieff, Elizabeth Debicki, Chris Sullivan e Kurt Russell nei panni di Ego, il padre di Peter Quill.











General
Unique ID                   : 182703371785672477682137440346652127737 (0x897363B40F781D22AEBBD86AE889B1F9)
Complete name               : *\Guardiani della Galassia Vol. 2 - Guardians of the Galaxy Vol. 2 (2017) iCV-MIRCrew.mkv
Format                      : Matroska
Format version              : Version 4 / Version 2
File size                   : 2.21 GiB
Duration                    : 2 h 14 min
Overall bit rate mode       : Variable
Overall bit rate            : 2 351 kb/s
Movie name                  : iCV-MIRCrew
Encoded date                : UTC 2017-05-01 00:35:22
Writing application         : mkvmerge v9.7.1 ('Pandemonium') 64bit
Writing library             : libebml v1.3.4 + libmatroska v1.4.5

Video
ID                          : 1
Format                      : AVC
Format/Info                 : Advanced Video Codec
Format profile              : High@L4.2
Format settings, CABAC      : Yes
Format settings, ReFrames   : 4 frames
Codec ID                    : V_MPEG4/ISO/AVC
Duration                    : 2 h 14 min
Bit rate mode               : Variable
Bit rate                    : 2 000 kb/s
Maximum bit rate            : 62.5 Mb/s
Width                       : 720 pixels
Height                      : 336 pixels
Display aspect ratio        : 2.143
Frame rate mode             : Constant
Frame rate                  : 30.000 FPS
Color space                 : YUV
Chroma subsampling          : 4:2:0
Bit depth                   : 8 bits
Scan type                   : Progressive
Bits/(Pixel*Frame)          : 0.276
Stream size                 : 1.89 GiB (85%)
Writing library             : x264 core 148 r2638 7599210
Encoding settings           : cabac=1 / ref=5 / deblock=1:0:0 / analyse=0x3:0x133 / me=umh / subme=9 / psy=1 / psy_rd=1.00:0.00 / mixed_ref=1 / me_range=18 / chroma_me=1 / trellis=2 / 8x8dct=1 / cqm=0 / deadzone=21,11 / fast_pskip=0 / chroma_qp_offset=-2 / threads=16 / lookahead_threads=1 / sliced_threads=0 / slices=4 / nr=0 / decimate=1 / interlaced=0 / bluray_compat=0 / constrained_intra=0 / bframes=3 / b_pyramid=1 / b_adapt=2 / b_bias=0 / direct=3 / weightb=1 / open_gop=0 / weightp=2 / keyint=300 / keyint_min=30 / scenecut=40 / intra_refresh=0 / rc_lookahead=40 / rc=abr / mbtree=1 / bitrate=2000 / ratetol=1.0 / qcomp=0.60 / qpmin=10 / qpmax=51 / qpstep=4 / vbv_maxrate=62500 / vbv_bufsize=78125 / nal_hrd=vbr / filler=0 / ip_ratio=1.40 / aq=1:1.00
Default                     : Yes
Forced                      : No
Color range                 : Full
Color primaries             : BT.709
Transfer characteristics    : BT.709
Matrix coefficients         : BT.709

Audio #1
ID                          : 2
Format                      : AAC
Format/Info                 : Advanced Audio Codec
Format profile              : LC
Codec ID                    : A_AAC
Duration                    : 2 h 14 min
Bit rate                    : 147 kb/s
Channel(s)                  : 2 channels
Channel positions           : Front: L R
Sampling rate               : 48.0 kHz
Frame rate                  : 46.875 FPS (1024 spf)
Compression mode            : Lossy
Stream size                 : 142 MiB (6%)
Language                    : Italian
Default                     : Yes
Forced                      : No

Audio #2
ID                          : 3
Format                      : MPEG Audio
Format version              : Version 1
Format profile              : Layer 3
Codec ID                    : A_MPEG/L3
Codec ID/Hint               : MP3
Duration                    : 2 h 14 min
Bit rate mode               : Constant
Bit rate                    : 192 kb/s
Channel(s)                  : 2 channels
Sampling rate               : 44.1 kHz
Frame rate                  : 38.281 FPS (1152 spf)
Compression mode            : Lossy
Delay relative to video     : 13 ms
Stream size                 : 185 MiB (8%)
Writing library             : LAME3.99.5
Language                    : English
Default                     : No
Forced                      : No




SEED 24-7 1 GBIT

[/center]
Info: Per scaricare devi usare un client come uTorrent o Transmission
AnnounceURL
udp://tracker.coppersurfer.tk:6969/announce
Hash 0b735749468a1ebb261b5f78fcb4440ff186cf17
Peers seeds: 825 , leech: 303
Size 2.21 GB
Completato 8849x
Aggiunto 01.05.17 - 18:05:58
Uploader   nicola939
Votazione (Voti: 8)


Condividi questo bittorrent:


html/blog:


bbcode/forum:




Aggiungi Commento
Ultimi commenti
  
Categoria sbagliata: è un screen e non RIP (DVD o BR).
05/05 06.30
  
pessimo, buttato immediatamente
03/05 19.00
  
è uno screener la qualità video e audio sono abbastanza pessime
03/05 17.37
Tutti commenti (3)