* Dettagli Torrent   globale  | Commenti (0) 


- Biancaneve e i sette nani (1937).H264.italian.english.Ac3-5.1.sub.ita.eng-MIRCrew -


Download via torrent:
Categoria bittorrent BDRip
Descrizione
Visitate mircrew-releases


Snow White and the Seven Dwarfs - Biancaneve e i sette nani (1937).H264.italian.english.Ac3-5.1.sub.ita.eng-MIRCrew


NO FOUND ONLY ORIGINAL RELEASE



My release is always in double track audio italian and Original audio
for select it use VLC or dvd player home
not use wmp

Biancaneve e i sette nani - Snow White and the Seven Dwarfs (1937)








Titolo originale Snow White and the Seven Dwarfs
Lingua originale inglese
Paese di produzione USA
Anno 1937
Durata 83 min
Rapporto 1.37:1
Genere animazione, fantastico, musicale, sentimentale
Regia David Hand, Perce Pearce, William Cottrell, Larry Morey, Wilfred Jackson, Ben Sharpsteen
Soggetto Fratelli Grimm
Sceneggiatura Dorothy Ann



***************************************



Basato sull omonima fiaba dei fratelli Grimm, è stato il primo lungometraggio in cel animation della storia del cinema, il primo film d'animazione prodotto negli Stati Uniti d'America, il primo a essere girato completamente a colori e il primo lungometraggio prodotto dalla Walt Disney Productions



Exiled into the dangerous forest by her wicked stepmother, a princess is rescued by seven dwarf miners who make her part of their household.  









General
Unique ID                                : 138649194757795452333302569580440538025 (0x684EDD148E89469CE5E8DB077C934BA9)
Complete name                            : Biancaneve e i sette nani (1937).H264.ita.eng.sub.ita.eng-MIRCrewBiancaneve e i sette nani (1937).mkv
Format                                   : Matroska
Format version                           : Version 2
File size                                : 1.20 GiB
Duration                                 : 1h 23mn
Overall bit rate                         : 2 071 Kbps
Movie name                               : MIRCrew
Encoded date                             : UTC 2018-09-17 23:40:47
Writing application                      : Lavf54.63.100
Writing library                          : Lavf54.63.100

Video
ID                                       : 1
Format                                   : AVC
Format/Info                              : Advanced Video Codec
Format profile                           : Main@L4.1
Format settings, CABAC                   : Yes
Format settings, ReFrames                : 2 frames
Codec ID                                 : V_MPEG4/ISO/AVC
Duration                                 : 1h 23mn
Bit rate                                 : 1 300 Kbps
Width                                    : 720 pixels
Height                                   : 544 pixels
Display aspect ratio                     : 4:3
Frame rate mode                          : Variable
Frame rate                               : 23.976 fps
Color space                              : YUV
Chroma subsampling                       : 4:2:0
Bit depth                                : 8 bits
Scan type                                : Progressive
Bits/(Pixel*Frame)                       : 0.138
Stream size                              : 751 MiB (61%)
Title                                    : Biancaneve e i sette nani
Writing library                          : x264 core 130 r2273
Encoding settings                        : cabac=1 / ref=2 / deblock=1:0:0 / analyse=0x1:0x131 / me=hex / subme=7 / psy=1 / psy_rd=1.00:0.00 / mixed_ref=0 / me_range=16 / chroma_me=1 / trellis=1 / 8x8dct=0 / cqm=0 / deadzone=21,11 / fast_pskip=1 / chroma_qp_offset=-2 / threads=3 / lookahead_threads=1 / sliced_threads=0 / nr=0 / decimate=1 / interlaced=0 / bluray_compat=0 / constrained_intra=0 / bframes=3 / b_pyramid=0 / b_adapt=1 / b_bias=0 / direct=3 / weightb=1 / open_gop=0 / weightp=2 / keyint=230 / keyint_min=23 / scenecut=40 / intra_refresh=0 / rc_lookahead=40 / rc=abr / mbtree=1 / bitrate=1300 / ratetol=1.0 / qcomp=0.60 / qpmin=10 / qpmax=69 / qpstep=4 / vbv_maxrate=24000 / vbv_bufsize=24000 / nal_hrd=none / ip_ratio=1.40 / aq=1:1.00
Language                                 : Italian
Default                                  : Yes
Forced                                   : No
DURATION                                 : 01:23:11.236000000
NUMBER_OF_FRAMES                         : 119670
NUMBER_OF_BYTES                          : 886588851
_STATISTICS_WRITING_APP                  : mkvmerge v13.0.0 ('The Juggler&#39 64bit
_STATISTICS_WRITING_DATE_UTC             : 2017-07-10 20:23:47
_STATISTICS_TAGS                         : BPS DURATION NUMBER_OF_FRAMES NUMBER_OF_BYTES

Audio #1
ID                                       : 2
Format                                   : AC-3
Format/Info                              : Audio Coding 3
Mode extension                           : CM (complete main)
Codec ID                                 : A_AC3
Duration                                 : 1h 23mn
Bit rate mode                            : Constant
Bit rate                                 : 384 Kbps
Channel(s)                               : 6 channels
Channel positions                        : Front: L C R, Side: L R, LFE
Sampling rate                            : 48.0 KHz
Bit depth                                : 16 bits
Compression mode                         : Lossy
Delay relative to video                  : 1mn 5s
Stream size                              : 228 MiB (19%)
Language                                 : Italian
Default                                  : Yes
Forced                                   : No
DURATION                                 : 01:23:11.253000000
NUMBER_OF_FRAMES                         : 233965
NUMBER_OF_BYTES                          : 209977886
_STATISTICS_WRITING_APP                  : mkvmerge v13.0.0 ('The Juggler&#39 64bit
_STATISTICS_WRITING_DATE_UTC             : 2017-07-10 20:23:47
_STATISTICS_TAGS                         : BPS DURATION NUMBER_OF_FRAMES NUMBER_OF_BYTES

Audio #2
ID                                       : 3
Format                                   : AC-3
Format/Info                              : Audio Coding 3
Mode extension                           : CM (complete main)
Codec ID                                 : A_AC3
Duration                                 : 1h 23mn
Bit rate mode                            : Constant
Bit rate                                 : 384 Kbps
Channel(s)                               : 6 channels
Channel positions                        : Front: L C R, Side: L R, LFE
Sampling rate                            : 48.0 KHz
Bit depth                                : 16 bits
Compression mode                         : Lossy
Delay relative to video                  : 1mn 5s
Stream size                              : 228 MiB (19%)
Language                                 : English
Default                                  : No
Forced                                   : No
DURATION                                 : 01:23:11.264000000
NUMBER_OF_FRAMES                         : 155977
NUMBER_OF_BYTES                          : 279510784
_STATISTICS_WRITING_APP                  : mkvmerge v13.0.0 ('The Juggler&#39 64bit
_STATISTICS_WRITING_DATE_UTC             : 2017-07-10 20:23:47
_STATISTICS_TAGS                         : BPS DURATION NUMBER_OF_FRAMES NUMBER_OF_BYTES

Menu
00:00:00.000                             : :01 Titoli di testa
00:01:22.708                             : :02 C'era una volta
00:02:11.965                             : :03 Lo specchio
00:03:35.507                             : :04 "Io spero - Non ho che un canto"
00:05:25.825                             : :05 Il principe ("Una canzone&#34
00:07:00.045                             : :06 Il diabolico piano della regina
00:09:11.426                             : :07 Fuga nel bosco
00:11:34.736                             : :08 "Con un sorriso e una canzone"
00:14:56.979                             : :09 La casetta dei nani
00:17:38.349                             : :10 "Impara a fischiettar"
00:21:25.284                             : :11 "Ehi-Ho"
00:24:09.156                             : :12 Biancaneve esplora il piano superiore
00:25:29.820                             : :13 I nani tornano a casa
00:34:55.427                             : :14 Biancaneve si sveglia
00:42:47.398                             : :15 "Bluddle-uddle-um-du - La canzone del bagno"
00:47:49.408                             : :16 Mi hanno ingannata
00:49:15.828                             : :17 La regina si traveste
00:52:02.119                             : :18 "Il canto dei nani"
00:56:49.448                             : :19 "Il mio amore un dì verrà"
00:58:53.321                             : :20 Prima di andare a letto
01:02:38.797                             : :21 La mela avelenata
01:05:40.937                             : :22 La mattina seguente
01:08:24.559                             : :23 La vecchia megera
01:11:41.297                             : :24 Gli animali avvertono i nani
01:14:08.903                             : :25 La mela
01:17:42.992                             : :26 La veglia intorno al letto
01:20:27.614                             : :27 Il primo bacio d'amore - Non ho che un canto"


Info: Per scaricare devi usare un client come uTorrent o Transmission
AnnounceURL
udp://tracker.coppersurfer.tk:6969/announce
Hash a4ca4efa7833b577d993f1bbfb755a6d47d2174e
Peers seeds: 48 , leech: 6
Size 1.21 GB
Completato 678x
Aggiunto 05.11.18 - 16:11:59
Uploader   robbyrs
Votazione (Voti: 2)


Condividi questo bittorrent:


html/blog:


bbcode/forum:




Aggiungi Commento