* Dettagli Torrent   globale  | Commenti (0) 


- Spacewalker - The Age of Pioneers (2017).720p.H264.italian.rus.Ac3-5.1.sub.ita-MIRCrew -


Download via torrent:
Categoria bittorrent BDRip
Descrizione
Spacewalker - The Age of Pioneers (2017).720p.H264.italian.rus.Ac3-5.1.sub.ita-MIRCrew



NO FOUND ONLY ORIGINAL RELEASE



My release is always in double track audio italian and Original audio
for select it use VLC or dvd player home
not use wmp

Spacewalker - The Age of Pioneers

(2017)

Quality MIRCrew on HD 720p da  2,3 gb








Titolo originale Gorillas in the Mist
Paese di produzione USA
Anno 1988
Durata 129 min
Genere biografico
Regia Michael Apted
Soggetto Dian Fossey
Sceneggiatura Anna Hamilton Phelan
Fotografia John Seale
Montaggio Stuart Baird
Musiche Maurice Jarre
Scenografia Ken Court



   Yevgeny Mironov
   Konstantin Khabensky
   Vladimir Ilyin
   Anatoly Kotenyov
   Aleksandra Ursulyak
   Yelena Panova
   Artyom Bystrov
   Marta Timofeeva
   Alexander Cena
   Nelli Nevedina



Un film di produzione Russa che rende omaggio in maniera impeccabile prima all'uomo,e poi al cosmonauta Leonov . Un personaggio che era difficile riuscire a mostrare al pubblico in maniera così completa come invece sono riusciti a fare ,frase simbolo infatti che rende bene l'idea a mio parere ,quando il comandante ( infortunatosi per una scelta immatura e spericolata durante un allenamente col tenente Leonov) gli dice " tu non hai proprio paura di niente ...



The film is set in the 60s of the 20th century, during the Cold War and the space race between USSR and the United States. Russians plan to send a man into space. Military pilot Pavel Belyayev and Alexey Leonov are ready to step into the open space. But on the way they face many obstacles and dangers.  









General
Unique ID                                : 224984928485081613107474323752819690361 (0xA94285658880EEF8A31FF30130450B79)
Complete name                            : Spacewalker (2017).720p.h264.ita.rus.sub.ita-MIRCrewSpacewalker (2017).720p.h264.ita.rus.sub.ita-MIRCrew.mkv
Format                                   : Matroska
Format version                           : Version 2
File size                                : 2.32 GiB
Duration                                 : 2h 11mn
Overall bit rate                         : 2 530 Kbps
Movie name                               : MIRCrew
Encoded date                             : UTC 2018-11-02 19:55:39
Writing application                      : mkvmerge v5.4.0 ('Piper&#39 built on Mar 10 2012 13:34:39
Writing library                          : Lavf54.63.100
COPYRIGHT                                : mircrew-releases

Video
ID                                       : 1
Format                                   : AVC
Format/Info                              : Advanced Video Codec
Format profile                           : Main@L4.1
Format settings, CABAC                   : Yes
Format settings, ReFrames                : 2 frames
Codec ID                                 : V_MPEG4/ISO/AVC
Duration                                 : 2h 11mn
Bit rate                                 : 1 900 Kbps
Width                                    : 1 280 pixels
Height                                   : 544 pixels
Display aspect ratio                     : 2.35:1
Original display aspect ratio            : 2.35:1
Frame rate mode                          : Variable
Frame rate                               : 25.000 fps
Color space                              : YUV
Chroma subsampling                       : 4:2:0
Bit depth                                : 8 bits
Scan type                                : Progressive
Bits/(Pixel*Frame)                       : 0.109
Stream size                              : 1.69 GiB (73%)
Title                                    : MIRCrew
Writing library                          : x264 core 130 r2273
Encoding settings                        : cabac=1 / ref=2 / deblock=1:0:0 / analyse=0x1:0x131 / me=hex / subme=7 / psy=1 / psy_rd=1.00:0.00 / mixed_ref=0 / me_range=16 / chroma_me=1 / trellis=1 / 8x8dct=0 / cqm=0 / deadzone=21,11 / fast_pskip=1 / chroma_qp_offset=-2 / threads=3 / lookahead_threads=1 / sliced_threads=0 / nr=0 / decimate=1 / interlaced=0 / bluray_compat=0 / constrained_intra=0 / bframes=3 / b_pyramid=0 / b_adapt=1 / b_bias=0 / direct=3 / weightb=1 / open_gop=0 / weightp=2 / keyint=250 / keyint_min=25 / scenecut=40 / intra_refresh=0 / rc_lookahead=40 / rc=abr / mbtree=1 / bitrate=1900 / ratetol=1.0 / qcomp=0.60 / qpmin=10 / qpmax=69 / qpstep=4 / vbv_maxrate=24000 / vbv_bufsize=24000 / nal_hrd=none / ip_ratio=1.40 / aq=1:1.00
Language                                 : Italian
Default                                  : Yes
Forced                                   : No
DURATION                                 : 02:11:20.560000000
NUMBER_OF_FRAMES                         : 197014
NUMBER_OF_BYTES                          : 6854816679
_STATISTICS_WRITING_APP                  : mkvmerge v27.0.0 ('Metropolis&#39 64-bit
_STATISTICS_WRITING_DATE_UTC             : 2018-10-20 14:22:42
_STATISTICS_TAGS                         : BPS DURATION NUMBER_OF_FRAMES NUMBER_OF_BYTES

Audio #1
ID                                       : 2
Format                                   : AC-3
Format/Info                              : Audio Coding 3
Mode extension                           : CM (complete main)
Codec ID                                 : A_AC3
Duration                                 : 2h 11mn
Bit rate mode                            : Constant
Bit rate                                 : 448 Kbps
Channel(s)                               : 6 channels
Channel positions                        : Front: L C R, Side: L R, LFE
Sampling rate                            : 48.0 KHz
Bit depth                                : 16 bits
Compression mode                         : Lossy
Delay relative to video                  : -5ms
Stream size                              : 421 MiB (18%)
Title                                    : Ita Ac3 5.1
Language                                 : Italian
Default                                  : Yes
Forced                                   : No
DURATION                                 : 02:11:20.512000000
NUMBER_OF_FRAMES                         : 738798
NUMBER_OF_BYTES                          : 1486461576
_STATISTICS_WRITING_APP                  : mkvmerge v27.0.0 ('Metropolis&#39 64-bit
_STATISTICS_WRITING_DATE_UTC             : 2018-10-20 14:22:42
_STATISTICS_TAGS                         : BPS DURATION NUMBER_OF_FRAMES NUMBER_OF_BYTES

Audio #2
ID                                       : 3
Format                                   : AC-3
Format/Info                              : Audio Coding 3
Mode extension                           : CM (complete main)
Codec ID                                 : A_AC3
Duration                                 : 2h 11mn
Bit rate mode                            : Constant
Bit rate                                 : 192 Kbps
Channel(s)                               : 2 channels
Channel positions                        : Front: L R
Sampling rate                            : 48.0 KHz
Bit depth                                : 16 bits
Compression mode                         : Lossy
Delay relative to video                  : -40ms
Stream size                              : 180 MiB (8%)
Title                                    : Rus Ac3 2.0
Language                                 : Russian
Default                                  : No
Forced                                   : No

Menu
00:00:00.000                             : :00:00:00.000
00:11:01.200                             : :00:11:01.200
00:22:04.600                             : :00:22:04.600
00:32:13.520                             : :00:32:13.520
00:44:07.080                             : :00:44:07.080
00:55:19.480                             : :00:55:19.480
01:06:06.800                             : :01:06:06.800
01:16:49.800                             : :01:16:49.800
01:28:19.360                             : :01:28:19.360
01:38:53.800                             : :01:38:53.800
01:50:02.720                             : :01:50:02.720
02:01:01.920                             : :02:01:01.920

Info: Per scaricare devi usare un client come uTorrent o Transmission
AnnounceURL
udp://tracker.coppersurfer.tk:6969/announce
Hash 12b86b5e7ec5ea50c5f7c871483f1eb8603b3540
Peers seeds: 101 , leech: 20
Size 2.32 GB
Completato 2027x
Aggiunto 03.11.18 - 16:11:00
Uploader   robbyrs
Votazione (Voti: 0)


Condividi questo bittorrent:


html/blog:


bbcode/forum:




Aggiungi Commento