* Dettagli Torrent   globale  | Commenti (0) 


- Cenerentola II - Quando i sogni diventano realtà (2002).720p.H264.italian.english.Ac3-5.1.sub.ita.en -


Download via torrent:
Categoria bittorrent BDRip
Descrizione
Visitate mircrew-releases

Cinderella II: Dreams Come True - Cenerentola II - Quando i sogni diventano realtà (2002).720p.H264.italian.english.Ac3-5.1.sub.ita.eng-MIRCrew


NO FOUND ONLY ORIGINAL RELEASE



My release is always in double track audio italian and Original audio
for select it use VLC or dvd player home
not use wmp

Cenerentola II - Quando i sogni diventano realtà

Cinderella II: Dreams Come True


(2002)

Quality MIRCrew on HD 720p da  1,4 gb








Titolo originale Cinderella II: Dreams Come True
Lingua originale inglese
Paese di produzione USA
Anno 2002
Durata 73 min
Rapporto 1,66:1
Genere animazione, fantastico, sentimentale
Regia John Kafka
Sceneggiatura Jill E. Blotevogel, Tom Rogers, Jule Selbo



*************************************



In un castello, i topi amici di Cenerentola Gas e Giac corrono in una camera dove la Fata Smemorina sta leggendo la storia di Cenerentola agli altri topi. Con loro grande disappunto, Gas e Giac arrivano proprio mentre la Fata Smemorina sta finendo la storia



The movie explores Cinderella's "happily ever after" life as a princess in three stories, with help from the Fairy Godmother. First, Cinderella's awkward first days at the palace, when she tried so hard to fit in that she forgot to be herself. Second, how Jaq felt so left out that he wished to be a human










General
Unique ID                                : 119526276581665269772946989955619947917 (0x59EBEC6BDEDC7C12479CD0135F47058D)
Complete name                            : Cenerentola 2 - Quando i sogni diventano realtà (2002)\Cenerentola 2 - Quando i sogni diventano realtà (2002).mkv
Format                                   : Matroska
Format version                           : Version 2
File size                                : 1.37 GiB
Duration                                 : 1h 13mn
Overall bit rate                         : 2 663 Kbps
Movie name                               : MIRCrew
Encoded date                             : UTC 2018-09-20 18:40:55
Writing application                      : Lavf54.63.100
Writing library                          : Lavf54.63.100

Video
ID                                       : 1
Format                                   : AVC
Format/Info                              : Advanced Video Codec
Format profile                           : Main@L4.1
Format settings, CABAC                   : Yes
Format settings, ReFrames                : 2 frames
Codec ID                                 : V_MPEG4/ISO/AVC
Duration                                 : 1h 13mn
Bit rate                                 : 1 900 Kbps
Width                                    : 1 216 pixels
Height                                   : 720 pixels
Display aspect ratio                     : 1.696
Frame rate mode                          : Variable
Frame rate                               : 23.976 fps
Color space                              : YUV
Chroma subsampling                       : 4:2:0
Bit depth                                : 8 bits
Scan type                                : Progressive
Bits/(Pixel*Frame)                       : 0.091
Stream size                              : 968 MiB (69%)
Writing library                          : x264 core 130 r2273
Encoding settings                        : cabac=1 / ref=2 / deblock=1:0:0 / analyse=0x1:0x131 / me=hex / subme=7 / psy=1 / psy_rd=1.00:0.00 / mixed_ref=0 / me_range=16 / chroma_me=1 / trellis=1 / 8x8dct=0 / cqm=0 / deadzone=21,11 / fast_pskip=1 / chroma_qp_offset=-2 / threads=3 / lookahead_threads=1 / sliced_threads=0 / nr=0 / decimate=1 / interlaced=0 / bluray_compat=0 / constrained_intra=0 / bframes=3 / b_pyramid=0 / b_adapt=1 / b_bias=0 / direct=3 / weightb=1 / open_gop=0 / weightp=2 / keyint=230 / keyint_min=23 / scenecut=40 / intra_refresh=0 / rc_lookahead=40 / rc=abr / mbtree=1 / bitrate=1900 / ratetol=1.0 / qcomp=0.60 / qpmin=10 / qpmax=69 / qpstep=4 / vbv_maxrate=24000 / vbv_bufsize=24000 / nal_hrd=none / ip_ratio=1.40 / aq=1:1.00
Language                                 : Italian
Default                                  : Yes
Forced                                   : No

Audio #1
ID                                       : 2
Format                                   : AC-3
Format/Info                              : Audio Coding 3
Mode extension                           : CM (complete main)
Codec ID                                 : A_AC3
Duration                                 : 1h 13mn
Bit rate mode                            : Constant
Bit rate                                 : 384 Kbps
Channel(s)                               : 6 channels
Channel positions                        : Front: L C R, Side: L R, LFE
Sampling rate                            : 48.0 KHz
Bit depth                                : 16 bits
Compression mode                         : Lossy
Delay relative to video                  : 1mn 5s
Stream size                              : 202 MiB (14%)
Language                                 : Italian
Default                                  : Yes
Forced                                   : No

Audio #2
ID                                       : 3
Format                                   : AC-3
Format/Info                              : Audio Coding 3
Mode extension                           : CM (complete main)
Codec ID                                 : A_AC3
Duration                                 : 1h 13mn
Bit rate mode                            : Constant
Bit rate                                 : 384 Kbps
Channel(s)                               : 6 channels
Channel positions                        : Front: L C R, Side: L R, LFE
Sampling rate                            : 48.0 KHz
Bit depth                                : 16 bits
Compression mode                         : Lossy
Delay relative to video                  : 1mn 5s
Stream size                              : 202 MiB (14%)
Language                                 : English
Default                                  : No
Forced                                   : No

Menu
00:00:00.000                             : :00:00:00.000
00:03:18.949                             : :00:03:18.949
00:07:21.191                             : :00:07:21.191
00:13:53.750                             : :00:13:53.750
00:18:36.365                             : :00:18:36.365
00:22:27.680                             : :00:22:27.680
00:27:55.716                             : :00:27:55.716
00:34:03.959                             : :00:34:03.959
00:37:44.012                             : :00:37:44.012
00:42:53.321                             : :00:42:53.321
00:46:10.810                             : :00:46:10.810
00:52:20.262                             : :00:52:20.262
00:57:22.773                             : :00:57:22.773
01:05:14.994                             : :01:05:14.994





Info: Per scaricare devi usare un client come uTorrent o Transmission
AnnounceURL
udp://tracker.coppersurfer.tk:6969/announce
Hash 3bdb619972ceeb2f72a5f05dfb331a43acd0024b
Peers seeds: 35 , leech: 10
Size 1.37 GB
Completato 369x
Aggiunto 03.11.18 - 13:11:24
Uploader   robbyrs
Votazione (Voti: 0)


Condividi questo bittorrent:


html/blog:


bbcode/forum:




Aggiungi Commento