* Dettagli Torrent   globale  | Commenti (0) 


- The Rescuers - Bianca e Bernie (1977).720p.H264.italian.english.Ac3-MIRCrew -


Download via torrent:
Categoria bittorrent BDRip
Descrizione
Visitate mircrew-releases

The Rescuers  - Bianca e Bernie (1977).720p.H264.italian.english.Ac3-MIRCrew


NO FOUND ONLY ORIGINAL RELEASE



My release is always in double track audio italian and Original audio
for select it use VLC or dvd player home
not use wmp

Bianca e Bernie - The Rescuers

(1977)

Quality MIRCrew on HD 720p da  1,3 gb









Titolo originale The Rescuers
Lingua originale inglese
Paese di produzione Stati Uniti d'America
Anno 1977
Durata 78 min
Rapporto 1,66:1
Genere animazione, avventura, fantastico
Regia Wolfgang Reitherman, John Lounsbery, Art Stevens
Soggetto Margery Sharp
Sceneggiatura Larry Clemmons



*********************************************



Dal rudere di un battello in secca in una palude, una bambina lancia nel fiume un messaggio in bottiglia dove chiede aiuto. La bottiglia naviga fino alle coste di New York dove viene ritrovata dalla Società Internazionale di Salvataggio, un'organizzazione a cui partecipano roditori da tutto il mondo.



When a bottle containing a plea for help from a little girl named Penny makes its way to the Rescue Aid Society, a mouse organization in the basement of the United Nations building dedicated to the rescue and well-being of anyone in need, it is up to the brave mouse Miss Bianca and her chosen partner, the shy janitor Bernard, to rescue the girl









General
Unique ID                                : 293656637302920141317515056042078857547 (0xDCEC360BA18BC25C439EDFD5387B694B)
Complete name                            : Bianca e Bernie - The Rescuers (1977).720p.h264.ita.eng-MIRCrewBianca e Bernie - The Rescuers (1977).720p.h264.ita.eng-MIRCrew.mkv
Format                                   : Matroska
Format version                           : Version 4 / Version 2
File size                                : 1.25 GiB
Duration                                 : 1h 17mn
Overall bit rate                         : 2 311 Kbps
Movie name                               : MIRCrew
Encoded date                             : UTC 2018-10-02 14:35:58
Writing application                      : mkvmerge v26.0.0 ('In The Game&#39 64-bit
Writing library                          : Lavf54.63.100

Video
ID                                       : 1
Format                                   : AVC
Format/Info                              : Advanced Video Codec
Format profile                           : Main@L4.1
Format settings, CABAC                   : Yes
Format settings, ReFrames                : 2 frames
Codec ID                                 : V_MPEG4/ISO/AVC
Duration                                 : 1h 17mn
Bit rate                                 : 1 900 Kbps
Width                                    : 1 200 pixels
Height                                   : 720 pixels
Display aspect ratio                     : 1.660
Original display aspect ratio            : 1.659
Frame rate mode                          : Variable
Frame rate                               : 23.976 fps
Color space                              : YUV
Chroma subsampling                       : 4:2:0
Bit depth                                : 8 bits
Scan type                                : Progressive
Bits/(Pixel*Frame)                       : 0.092
Stream size                              : 1.01 GiB (81%)
Title                                    : MIRCrew
Writing library                          : x264 core 130 r2273
Encoding settings                        : cabac=1 / ref=2 / deblock=1:0:0 / analyse=0x1:0x131 / me=hex / subme=7 / psy=1 / psy_rd=1.00:0.00 / mixed_ref=0 / me_range=16 / chroma_me=1 / trellis=1 / 8x8dct=0 / cqm=0 / deadzone=21,11 / fast_pskip=1 / chroma_qp_offset=-2 / threads=6 / lookahead_threads=1 / sliced_threads=0 / nr=0 / decimate=1 / interlaced=0 / bluray_compat=0 / constrained_intra=0 / bframes=3 / b_pyramid=0 / b_adapt=1 / b_bias=0 / direct=3 / weightb=1 / open_gop=0 / weightp=2 / keyint=230 / keyint_min=23 / scenecut=40 / intra_refresh=0 / rc_lookahead=40 / rc=abr / mbtree=1 / bitrate=1900 / ratetol=1.0 / qcomp=0.60 / qpmin=10 / qpmax=69 / qpstep=4 / vbv_maxrate=24000 / vbv_bufsize=24000 / nal_hrd=none / ip_ratio=1.40 / aq=1:1.00
Language                                 : Italian
Default                                  : Yes
Forced                                   : No
DURATION                                 : 01:17:13.880000000
NUMBER_OF_FRAMES                         : 111102
NUMBER_OF_BYTES                          : 1115211766
_STATISTICS_WRITING_APP                  : mkvmerge v26.0.0 ('In The Game&#39 64-bit
_STATISTICS_WRITING_DATE_UTC             : 2018-10-02 17:11:57
_STATISTICS_TAGS                         : BPS DURATION NUMBER_OF_FRAMES NUMBER_OF_BYTES

Audio #1
ID                                       : 2
Format                                   : AC-3
Format/Info                              : Audio Coding 3
Mode extension                           : CM (complete main)
Codec ID                                 : A_AC3
Duration                                 : 1h 17mn
Bit rate mode                            : Constant
Bit rate                                 : 192 Kbps
Channel(s)                               : 2 channels
Channel positions                        : Front: L R
Sampling rate                            : 48.0 KHz
Bit depth                                : 16 bits
Compression mode                         : Lossy
Delay relative to video                  : -5ms
Stream size                              : 106 MiB (8%)
Title                                    : ita Ac3
Language                                 : Italian
Default                                  : Yes
Forced                                   : No
DURATION                                 : 01:17:13.312000000
NUMBER_OF_FRAMES                         : 144791
NUMBER_OF_BYTES                          : 111199488
_STATISTICS_WRITING_APP                  : mkvmerge v26.0.0 ('In The Game&#39 64-bit
_STATISTICS_WRITING_DATE_UTC             : 2018-10-02 17:11:57
_STATISTICS_TAGS                         : BPS DURATION NUMBER_OF_FRAMES NUMBER_OF_BYTES

Audio #2
ID                                       : 3
Format                                   : AC-3
Format/Info                              : Audio Coding 3
Mode extension                           : CM (complete main)
Codec ID                                 : A_AC3
Duration                                 : 1h 17mn
Bit rate mode                            : Constant
Bit rate                                 : 192 Kbps
Channel(s)                               : 2 channels
Channel positions                        : Front: L R
Sampling rate                            : 48.0 KHz
Bit depth                                : 16 bits
Compression mode                         : Lossy
Delay relative to video                  : -5ms
Stream size                              : 106 MiB (8%)
Title                                    : eng Ac3
Language                                 : English
Default                                  : No
Forced                                   : No
DURATION                                 : 01:17:13.856000000
NUMBER_OF_FRAMES                         : 144808
NUMBER_OF_BYTES                          : 111212544
_STATISTICS_WRITING_APP                  : mkvmerge v26.0.0 ('In The Game&#39 64-bit
_STATISTICS_WRITING_DATE_UTC             : 2018-10-02 17:11:57
_STATISTICS_TAGS                         : BPS DURATION NUMBER_OF_FRAMES NUMBER_OF_BYTES

Menu
00:00:00.000                             : :00:00:00.000
00:04:17.674                             : :00:04:17.674
00:11:26.603                             : :00:11:26.603
00:14:06.012                             : :00:14:06.012
00:19:50.439                             : :00:19:50.439
00:23:57.353                             : :00:23:57.353
00:29:38.151                             : :00:29:38.151
00:32:37.497                             : :00:32:37.497
00:38:04.324                             : :00:38:04.324
00:42:13.322                             : :00:42:13.322
00:52:37.946                             : :00:52:37.946
00:55:21.985                             : :00:55:21.985
01:00:19.282                             : :01:00:19.282
01:09:11.939                             : :01:09:11.939
01:15:26.981                             : :01:15:26.981



Info: Per scaricare devi usare un client come uTorrent o Transmission
AnnounceURL
udp://tracker.coppersurfer.tk:6969/announce
Hash 316058d4f45472821d2ed85199657bc1ca94874e
Peers seeds: 15 , leech: 3
Size 1.25 GB
Completato 478x
Aggiunto 02.11.18 - 17:11:01
Uploader   robbyrs
Votazione (Voti: 0)


Condividi questo bittorrent:


html/blog:


bbcode/forum:




Aggiungi Commento