* Dettagli Torrent   globale  | Commenti (0) 


- Operation Red Sea (2018).720p.H264.italian.chn.Ac3-5.1.sub.ita-MIRCrew -


Download via torrent:
Categoria bittorrent BDRip
Descrizione
visitate mircrew-releases



Operation Red Sea 2018.720p.H264.italian.chn.Ac3-5.1.sub.ita-MIRCrew


NO FOUND ONLY ORIGINAL RELEASE



My release is always in double track audio italian and Original audio
for select it use VLC or dvd player home
not use wmp

Operation Red Sea

2018

Quality MIRCrew on HD 720p da  2,6 gb








Regia di Dante Lam.
Genere Azione
Cina, 2018



Hanyu Zhang, Sanâa Alaoui, Zhang Yi, Luxia Jiang, Johnny Huang, Du Jiang



Dopo aver sconfitto i pirati al largo della Somalia, una flotta della Marina cinese, in servizio nelle acque del Mar Rosso, riceve l'ordine di evacuare i cittadini cinesi che si trovano nello Yewaire, un piccolo stato in piena guerra civile.



PLA Navy Marine Corps launch a hostage rescue operation in the fictional Republic of Ihwea and undergo a fierce battle with rebellions and terrorism.








General
Unique ID                                : 92469491564502306666168203785805192113 (0x4590F9ED22680B1D92903DDCE2335BB1)
Complete name                            : Operation Red Sea 2018.720p.h264.ita.chn.sub.ita-MIRCrew\Operation Red Sea 2018.720p.h264.ita.chn.sub.ita-MIRCrew.mkv
Format                                   : Matroska
Format version                           : Version 2
File size                                : 2.59 GiB
Duration                                 : 2h 13mn
Overall bit rate                         : 2 792 Kbps
Movie name                               : MIRCrew
Encoded date                             : UTC 2018-10-27 05:11:37
Writing application                      : Lavf54.63.100
Writing library                          : Lavf54.63.100

Video
ID                                       : 1
Format                                   : AVC
Format/Info                              : Advanced Video Codec
Format profile                           : Main@L4.1
Format settings, CABAC                   : Yes
Format settings, ReFrames                : 2 frames
Codec ID                                 : V_MPEG4/ISO/AVC
Duration                                 : 2h 13mn
Bit rate                                 : 1 900 Kbps
Width                                    : 1 280 pixels
Height                                   : 528 pixels
Display aspect ratio                     : 2.40:1
Frame rate mode                          : Variable
Frame rate                               : 25.000 fps
Color space                              : YUV
Chroma subsampling                       : 4:2:0
Bit depth                                : 8 bits
Scan type                                : Progressive
Bits/(Pixel*Frame)                       : 0.112
Stream size                              : 1.71 GiB (66%)
Writing library                          : x264 core 130 r2273
Encoding settings                        : cabac=1 / ref=2 / deblock=1:0:0 / analyse=0x1:0x131 / me=hex / subme=7 / psy=1 / psy_rd=1.00:0.00 / mixed_ref=0 / me_range=16 / chroma_me=1 / trellis=1 / 8x8dct=0 / cqm=0 / deadzone=21,11 / fast_pskip=1 / chroma_qp_offset=-2 / threads=6 / lookahead_threads=1 / sliced_threads=0 / nr=0 / decimate=1 / interlaced=0 / bluray_compat=0 / constrained_intra=0 / bframes=3 / b_pyramid=0 / b_adapt=1 / b_bias=0 / direct=3 / weightb=1 / open_gop=0 / weightp=2 / keyint=250 / keyint_min=25 / scenecut=40 / intra_refresh=0 / rc_lookahead=40 / rc=abr / mbtree=1 / bitrate=1900 / ratetol=1.0 / qcomp=0.60 / qpmin=10 / qpmax=69 / qpstep=4 / vbv_maxrate=24000 / vbv_bufsize=24000 / nal_hrd=none / ip_ratio=1.40 / aq=1:1.00
Language                                 : Italian
Default                                  : Yes
Forced                                   : No
DURATION                                 : 02:13:04.440000000
NUMBER_OF_FRAMES                         : 199611
NUMBER_OF_BYTES                          : 14735441625
_STATISTICS_WRITING_APP                  : mkvmerge v28.0.0 ('Voice In My Head') 64-bit
_STATISTICS_WRITING_DATE_UTC             : 2018-10-27 05:11:37
_STATISTICS_TAGS                         : BPS DURATION NUMBER_OF_FRAMES NUMBER_OF_BYTES

Audio #1
ID                                       : 2
Format                                   : AC-3
Format/Info                              : Audio Coding 3
Mode extension                           : CM (complete main)
Codec ID                                 : A_AC3
Duration                                 : 2h 13mn
Bit rate mode                            : Constant
Bit rate                                 : 448 Kbps
Channel(s)                               : 6 channels
Channel positions                        : Front: L C R, Side: L R, LFE
Sampling rate                            : 48.0 KHz
Bit depth                                : 16 bits
Compression mode                         : Lossy
Delay relative to video                  : 1mn 5s
Stream size                              : 426 MiB (16%)
Language                                 : Italian
Default                                  : Yes
Forced                                   : No
DURATION                                 : 02:13:04.438000000
NUMBER_OF_FRAMES                         : 748541
NUMBER_OF_BYTES                          : 1506064492
_STATISTICS_WRITING_APP                  : mkvmerge v28.0.0 ('Voice In My Head') 64-bit
_STATISTICS_WRITING_DATE_UTC             : 2018-10-27 05:11:37
_STATISTICS_TAGS                         : BPS DURATION NUMBER_OF_FRAMES NUMBER_OF_BYTES

Audio #2
ID                                       : 3
Format                                   : AC-3
Format/Info                              : Audio Coding 3
Mode extension                           : CM (complete main)
Codec ID                                 : A_AC3
Duration                                 : 2h 13mn
Bit rate mode                            : Constant
Bit rate                                 : 448 Kbps
Channel(s)                               : 6 channels
Channel positions                        : Front: L C R, Side: L R, LFE
Sampling rate                            : 48.0 KHz
Bit depth                                : 16 bits
Compression mode                         : Lossy
Delay relative to video                  : 1mn 5s
Stream size                              : 426 MiB (16%)
Language                                 : Chinese
Default                                  : No
Forced                                   : No
DURATION                                 : 02:13:04.448000000
NUMBER_OF_FRAMES                         : 249514
NUMBER_OF_BYTES                          : 447129088
_STATISTICS_WRITING_APP                  : mkvmerge v28.0.0 ('Voice In My Head') 64-bit
_STATISTICS_WRITING_DATE_UTC             : 2018-10-27 05:11:37
_STATISTICS_TAGS                         : BPS DURATION NUMBER_OF_FRAMES NUMBER_OF_BYTES

Menu
00:00:00.000                             : :00:00:00.000
00:11:58.440                             : :00:11:58.440
00:24:00.960                             : :00:24:00.960
00:36:01.920                             : :00:36:01.920
00:47:40.880                             : :00:47:40.880
01:00:01.240                             : :01:00:01.240
01:11:59.040                             : :01:11:59.040
01:24:01.880                             : :01:24:01.880
01:35:41.120                             : :01:35:41.120
01:48:00.720                             : :01:48:00.720
01:59:52.560                             : :01:59:52.560
02:09:55.200                             : :02:09:55.200

Info: Per scaricare devi usare un client come uTorrent o Transmission
AnnounceURL
udp://tracker.coppersurfer.tk:6969/announce
Hash 20ee049903925d816ee1c0b7a712b49f9fb9a33b
Peers seeds: 203 , leech: 68
Size 2.59 GB
Completato 2487x
Aggiunto 01.11.18 - 15:11:20
Uploader   robbyrs
Votazione (Voti: 0)


Condividi questo bittorrent:


html/blog:


bbcode/forum:




Aggiungi Commento