* Dettagli Torrent   globale  | Commenti (0) 


- Dragon Blade - La Battaglia Degli Imperi (2015) Jackie Chan.H264.italian.Ac3-5.1-MIRCrew -


Download via torrent:
Categoria bittorrent BDRip
Descrizione
Visitate mircrew-releases

Dragon Blade - La Battaglia Degli Imperi (2015) Jackie Chan.H264.italian.Ac3-5.1-MIRCrew


NO FOUND ONLY ORIGINAL RELEASE



My release is always in double track audio italian and Original audio
for select it use VLC or dvd player home
not use wmp

Dragon Blade - La Battaglia Degli Imperi (2015)







Titolo originale Ti?n Jiàng Xióng Sh? (Generale Celestiale, Armata Eroica in Mandarino)
Lingua originale inglese, cinese mandarino, latino, turco
Paese di produzione Cina, Hong Kong, Stati Uniti d'America
Anno 2015
Durata

   127 minuti
   103 minuti (Stati Uniti)



   Jackie Chan: Huo An
   John Cusack: Lucius
   Adrien Brody: Tiberius
   Lin Peng: Luna Fredda (Cold Moon)
   Mika Wang: Xiu Qing (moglie di Huo An)
   Choi Siwon: Yin Po
   Xiao Yang: Capitano
   Wang Taili: Topo (Rat)
   Sammy Hung: Sole Rosso (Red Sun)
   Yoo Seung-jun: Giaguaro (Cougar)
   Lorie Pester: Regina dei Parti
   Vanness Wu: Cristiano (Christian)
   Karena Lam: Karena
   Feng Shaofeng: Generale Huo Qubing
   Sharni Vinson: Signora Crassus (Regina Partica)
   Josef Waite: Publius
   Philippe Joly: Decimus
   James Lee Guy: Eugenio



La storia si svolge nell'anno 48 a.C. Una compagnia di sicurezza in Cina (governata dalla dinastia Han), chiamata Squadra di Protezione della Via della Seta, è incaricata di promuovere la pace impedendo le guerre nel miglior modo possibile. Huo An, un generale della dinastia



When corrupt Roman leader Tiberius arrives with a giant army to claim the Silk Road, Huo An teams up his army with an elite Legion of defected Roman soldiers led by General Lucius to protect his country and his new friends.  










General
Unique ID                                : 252353645187317418520811898659448878826 (0xBDD98B4FA712A064811146040F70F6EA)
Complete name                            : Dragon Blade - La Battaglia Degli Imperi (2015).H264-MIRCrew.mkv
Format                                   : Matroska
Format version                           : Version 2
File size                                : 1.22 GiB
Duration                                 : 1h 41mn
Overall bit rate                         : 1 720 Kbps
Movie name                               : MIRCrew
Encoded date                             : UTC 2016-11-25 21:35:24
Writing application                      : mkvmerge v5.4.0 ('Piper') built on Mar 10 2012 13:34:39
Writing library                          : Lavf54.63.100
COPYRIGHT                                : robbyrs

Video
ID                                       : 1
Format                                   : AVC
Format/Info                              : Advanced Video Codec
Format profile                           : Main@L4.1
Format settings, CABAC                   : Yes
Format settings, ReFrames                : 2 frames
Codec ID                                 : V_MPEG4/ISO/AVC
Duration                                 : 1h 41mn
Bit rate                                 : 1 270 Kbps
Width                                    : 720 pixels
Height                                   : 304 pixels
Display aspect ratio                     : 2.40:1
Frame rate mode                          : Variable
Frame rate                               : 24.000 fps
Color space                              : YUV
Chroma subsampling                       : 4:2:0
Bit depth                                : 8 bits
Scan type                                : Progressive
Bits/(Pixel*Frame)                       : 0.242
Stream size                              : 896 MiB (72%)
Writing library                          : x264 core 130 r2273
Encoding settings                        : cabac=1 / ref=2 / deblock=1:0:0 / analyse=0x1:0x131 / me=hex / subme=7 / psy=1 / psy_rd=1.00:0.00 / mixed_ref=0 / me_range=16 / chroma_me=1 / trellis=1 / 8x8dct=0 / cqm=0 / deadzone=21,11 / fast_pskip=1 / chroma_qp_offset=-2 / threads=12 / lookahead_threads=2 / sliced_threads=0 / nr=0 / decimate=1 / interlaced=0 / bluray_compat=0 / constrained_intra=0 / bframes=3 / b_pyramid=0 / b_adapt=1 / b_bias=0 / direct=3 / weightb=1 / open_gop=0 / weightp=2 / keyint=240 / keyint_min=24 / scenecut=40 / intra_refresh=0 / rc_lookahead=40 / rc=2pass / mbtree=1 / bitrate=1270 / ratetol=1.0 / qcomp=0.60 / qpmin=10 / qpmax=69 / qpstep=4 / cplxblur=20.0 / qblur=0.5 / vbv_maxrate=24000 / vbv_bufsize=24000 / nal_hrd=none / ip_ratio=1.40 / aq=1:1.00
Language                                 : English
Default                                  : Yes
Forced                                   : No

Audio
ID                                       : 2
Format                                   : AC-3
Format/Info                              : Audio Coding 3
Mode extension                           : CM (complete main)
Codec ID                                 : A_AC3
Duration                                 : 1h 41mn
Bit rate mode                            : Constant
Bit rate                                 : 448 Kbps
Channel(s)                               : 6 channels
Channel positions                        : Front: L C R, Side: L R, LFE
Sampling rate                            : 48.0 KHz
Bit depth                                : 16 bits
Compression mode                         : Lossy
Delay relative to video                  : -5ms
Stream size                              : 324 MiB (26%)
Title                                    : Ita Ac3 5.1
Language                                 : Italian
Default                                  : No
Forced                                   : No

Info: Per scaricare devi usare un client come uTorrent o Transmission
AnnounceURL
udp://tracker.coppersurfer.tk:6969/announce
Hash d38bb0f8749f4a8d53ff306e9942197874ae46ed
Peers seeds: 122 , leech: 27
Size 1.22 GB
Completato 868x
Aggiunto 01.11.18 - 14:11:23
Uploader   robbyrs
Votazione (Voti: 0)


Condividi questo bittorrent:


html/blog:


bbcode/forum:




Aggiungi Commento